<?xml version="1.0" standalone="no"?>
<!DOCTYPE svg PUBLIC "-//W3C//DTD SVG 1.1//EN" "http://www.w3.org/Graphics/SVG/1.1/DTD/svg11.dtd" >
<svg xmlns="http://www.w3.org/2000/svg">
<metadata>Generated by IcoMoon</metadata>
<defs>
<font id="bingen" horiz-adv-x="1024">
<font-face units-per-em="1024" ascent="960" descent="-64" />
<missing-glyph horiz-adv-x="1024" />
<glyph unicode="&#x20;" horiz-adv-x="512" d="" />
<glyph unicode="&#xe900;" glyph-name="arrow-bottom" d="M540.2 183.2l472.4 473.6c15.4 15.6 15.4 40.6 0 56.2-15.6 15.4-40.6 15.4-56.2 0l-444.4-445.6-444.2 445.4c-15.4 15.6-40.6 15.6-56.2 0-7.8-7.8-11.6-18-11.6-28.2s3.8-20.2 11.6-28l472.4-473.6c7.4-7.4 17.6-11.6 28-11.6 10.6 0 20.6 4.2 28.2 11.8z" />
<glyph unicode="&#xe901;" glyph-name="arrow-left" d="M247.2 419.8l473.6-472.4c15.6-15.4 40.6-15.4 56.2 0 15.4 15.6 15.4 40.6 0 56.2l-445.6 444.4 445.4 444.2c15.6 15.4 15.6 40.6 0 56.2-7.8 7.8-18 11.6-28.2 11.6s-20.2-3.8-28-11.6l-473.4-472.2c-7.4-7.4-11.6-17.6-11.6-28-0.2-10.8 4-20.8 11.6-28.4z" />
<glyph unicode="&#xe902;" glyph-name="arrow-long-bottom" d="M527-57.8l320 320c8.4 8.4 8.4 21.8 0 30.2s-21.8 8.4-30.2 0l-283.4-283.6v929.8c0 11.8-9.6 21.4-21.4 21.4s-21.4-9.6-21.4-21.4v-929.8l-283.6 283.6c-8.4 8.4-21.8 8.4-30.2 0-4.2-4.2-6.2-9.6-6.2-15s2-11 6.2-15l320-320c8.4-8.4 22-8.4 30.2-0.2z" />
<glyph unicode="&#xe903;" glyph-name="arrow-long-left" d="M6.2 433l320-320c8.4-8.4 21.8-8.4 30.2 0s8.4 21.8 0 30.2l-283.6 283.4h929.8c11.8 0 21.4 9.6 21.4 21.4s-9.6 21.4-21.4 21.4h-929.8l283.6 283.6c8.4 8.4 8.4 21.8 0 30.2-4.2 4.2-9.6 6.2-15 6.2s-11-2-15-6.2l-320-320c-8.4-8.4-8.4-22-0.2-30.2z" />
<glyph unicode="&#xe904;" glyph-name="arrow-long-right" d="M1017.75 463.084l-320 320c-8.334 8.334-21.834 8.334-30.166 0-8.334-8.334-8.334-21.834 0-30.166l283.584-283.584h-929.834c-11.792 0-21.334-9.542-21.334-21.334s9.542-21.334 21.334-21.334h929.834l-283.584-283.582c-8.334-8.334-8.334-21.834 0-30.166 4.166-4.166 9.626-6.25 15.084-6.25s10.916 2.084 15.084 6.25l320 320c8.332 8.332 8.332 21.832-0.002 30.166z" />
<glyph unicode="&#xe905;" glyph-name="arrow-long-top" d="M497 953.8l-320-320c-8.4-8.4-8.4-21.8 0-30.2s21.8-8.4 30.2 0l283.4 283.6v-929.8c0-11.8 9.6-21.4 21.4-21.4s21.4 9.6 21.4 21.4v929.8l283.6-283.6c8.4-8.4 21.8-8.4 30.2 0 4.2 4.2 6.2 9.6 6.2 15s-2 11-6.2 15l-320 320c-8.4 8.4-22 8.4-30.2 0.2z" />
<glyph unicode="&#xe906;" glyph-name="arrow-right" d="M776.847 476.1l-473.63 472.32c-15.518 15.466-40.642 15.44-56.134-0.080-15.48-15.518-15.44-40.656 0.080-56.134l445.438-444.208-445.454-444.206c-15.518-15.48-15.558-40.602-0.080-56.122 7.766-7.78 17.94-11.67 28.114-11.67 10.148 0 20.282 3.864 28.034 11.59l473.632 472.308c7.474 7.436 11.668 17.556 11.668 28.1s-4.206 20.652-11.668 28.102z" />
<glyph unicode="&#xe907;" glyph-name="arrow-top" d="M484 712.8l-472.4-473.6c-15.4-15.6-15.4-40.6 0-56.2 15.6-15.4 40.6-15.4 56.2 0l444.2 445.6 444.2-445.4c15.4-15.6 40.6-15.6 56.2 0 7.8 7.8 11.6 18 11.6 28.2s-3.8 20.2-11.6 28l-472.2 473.4c-7.4 7.4-17.6 11.6-28 11.6-10.8 0.2-20.8-4-28.2-11.6z" />
<glyph unicode="&#xe908;" glyph-name="calendar" d="M292 548h20c11.046 0 20 8.954 20 20s-8.954 20-20 20h-20c-11.046 0-20-8.954-20-20s8.954-20 20-20zM432 548h20c11.046 0 20 8.954 20 20s-8.954 20-20 20h-20c-11.046 0-20-8.954-20-20s8.954-20 20-20zM572 548h20c11.044 0 20 8.954 20 20s-8.956 20-20 20h-20c-11.046 0-20-8.954-20-20s8.954-20 20-20zM712 548h20c11.044 0 20 8.954 20 20s-8.956 20-20 20h-20c-11.046 0-20-8.954-20-20s8.954-20 20-20zM852 548h20c11.044 0 20 8.954 20 20s-8.956 20-20 20h-20c-11.046 0-20-8.954-20-20s8.954-20 20-20zM152 428h20c11.046 0 20 8.956 20 20 0 11.046-8.954 20-20 20h-20c-11.046 0-20-8.954-20-20 0-11.044 8.954-20 20-20zM292 428h20c11.046 0 20 8.956 20 20 0 11.046-8.954 20-20 20h-20c-11.046 0-20-8.954-20-20 0-11.044 8.954-20 20-20zM432 428h20c11.046 0 20 8.956 20 20 0 11.046-8.954 20-20 20h-20c-11.046 0-20-8.954-20-20 0-11.044 8.954-20 20-20zM572 428h20c11.044 0 20 8.956 20 20 0 11.046-8.956 20-20 20h-20c-11.046 0-20-8.954-20-20 0-11.044 8.954-20 20-20zM712 428h20c11.044 0 20 8.956 20 20 0 11.046-8.956 20-20 20h-20c-11.046 0-20-8.954-20-20 0-11.044 8.954-20 20-20zM852 428h20c11.044 0 20 8.956 20 20 0 11.046-8.956 20-20 20h-20c-11.046 0-20-8.954-20-20 0-11.044 8.954-20 20-20zM152 308h20c11.046 0 20 8.956 20 20s-8.954 20-20 20h-20c-11.046 0-20-8.956-20-20s8.954-20 20-20zM292 308h20c11.046 0 20 8.956 20 20s-8.954 20-20 20h-20c-11.046 0-20-8.956-20-20s8.954-20 20-20zM432 308h20c11.046 0 20 8.956 20 20s-8.954 20-20 20h-20c-11.046 0-20-8.956-20-20s8.954-20 20-20zM572 308h20c11.044 0 20 8.956 20 20s-8.956 20-20 20h-20c-11.046 0-20-8.956-20-20s8.954-20 20-20zM712 308h20c11.044 0 20 8.956 20 20s-8.956 20-20 20h-20c-11.046 0-20-8.956-20-20s8.954-20 20-20zM852 308h20c11.044 0 20 8.956 20 20s-8.956 20-20 20h-20c-11.046 0-20-8.956-20-20s8.954-20 20-20zM152 188h20c11.046 0 20 8.956 20 20s-8.954 20-20 20h-20c-11.046 0-20-8.956-20-20s8.954-20 20-20zM292 188h20c11.046 0 20 8.956 20 20s-8.954 20-20 20h-20c-11.046 0-20-8.956-20-20s8.954-20 20-20zM432 188h20c11.046 0 20 8.956 20 20s-8.954 20-20 20h-20c-11.046 0-20-8.956-20-20s8.954-20 20-20zM572 188h20c11.044 0 20 8.956 20 20s-8.956 20-20 20h-20c-11.046 0-20-8.956-20-20s8.954-20 20-20zM712 188h20c11.044 0 20 8.956 20 20s-8.956 20-20 20h-20c-11.046 0-20-8.956-20-20s8.954-20 20-20zM852 188h20c11.044 0 20 8.956 20 20s-8.956 20-20 20h-20c-11.046 0-20-8.956-20-20s8.954-20 20-20zM152 68h20c11.046 0 20 8.956 20 20s-8.954 20-20 20h-20c-11.046 0-20-8.956-20-20s8.954-20 20-20zM292 68h20c11.046 0 20 8.956 20 20s-8.954 20-20 20h-20c-11.046 0-20-8.956-20-20s8.954-20 20-20zM432 68h20c11.046 0 20 8.956 20 20s-8.954 20-20 20h-20c-11.046 0-20-8.956-20-20s8.954-20 20-20zM572 68h20c11.044 0 20 8.956 20 20s-8.956 20-20 20h-20c-11.046 0-20-8.956-20-20s8.954-20 20-20zM992 868h-100v10c0 38.598-31.402 70-70 70s-70-31.402-70-70v-10h-480v10c0 38.598-31.402 70-70 70s-70-31.402-70-70v-10h-100c-11.046 0-20-8.954-20-20v-880c0-11.044 8.954-20 20-20h960c11.044 0 20 8.956 20 20 0 40.47 0 865.33 0 880 0 11.046-8.956 20-20 20zM792 878c0 16.542 13.456 30 30 30 16.542 0 30-13.458 30-30v-60c0-16.542-13.458-30-30-30-16.544 0-30 13.458-30 30v30zM172 878c0 16.542 13.458 30 30 30s30-13.458 30-30v-60c0-16.542-13.458-30-30-30s-30 13.458-30 30v30zM52 828h80v-10c0-38.598 31.402-70 70-70s70 31.402 70 70v10h480v-10c0-41.266 35.764-73.852 77.146-69.638 35.266 3.59 62.854 33.466 62.854 69.638v10h80v-120h-920zM972-12h-920v680h920z" />
<glyph unicode="&#xe909;" glyph-name="cart" d="M362.4 96.2c-5-56 41.8-102.8 97.8-97.8 43 3.8 77.6 38.4 81.4 81.4 5 56-41.8 102.8-97.8 97.8-43-3.8-77.6-38.4-81.4-81.4zM448 117.8c19.6 2.4 36.2-14 33.6-33.6-1.6-13.4-12.4-24.2-25.8-25.8-19.6-2.4-36.2 14-33.6 33.6 1.8 13.2 12.6 24 25.8 25.8zM664.4 96.2c-5-56 41.8-102.8 97.8-97.8 43 3.8 77.6 38.4 81.4 81.4 5 56-41.8 102.8-97.8 97.8-43-3.8-77.6-38.4-81.4-81.4zM750 117.8c19.6 2.4 36.2-14 33.6-33.6-1.6-13.4-12.4-24.2-25.8-25.8-19.6-2.4-36.2 14-33.6 33.6 1.8 13.2 12.6 24 25.8 25.8zM195.6 898l-164.8 32c-15.4 0-29-11.2-30.6-26.6-2-18 12.6-28 29.8-33.4l125-32c33.6-117.4 112-392 144.8-507l-11.4-22.8c-30-60 13.6-130.2 80.4-130.2h504.2c15.4 0 29 11.2 30.6 26.6 2 18-12.2 33.4-29.8 33.4h-504.8c-22.4 0-36.8 23.4-26.8 43.4l8.2 16.6h523.6c13.4 0 25.2 8.8 28.8 21.8l120 340c5.4 19.2-12.2 33.2-28.8 38.2v0l-734.6 184.2 18.2-63.4 676.6-180.8-102.8-280h-496.8c-16.4 57.2-159 540-159 540z" />
<glyph unicode="&#xe90a;" glyph-name="chat" d="M1010.8 34.6l-59.6 187.4 2.4 3.2c99 139 77.8 325-50.2 442.4-60.4 55.4-137 90-221 99.6l-3.2 0.4-2 2.6c-0.4 0.4-0.8 1-1.2 1.4-72.6 75.2-176.8 118.4-286 118.4-210.6 0-382-158-382-352 0-69 21.6-135.6 62.4-192.8l2.4-3.2-59.8-187.4c-2.8-8.4 0-17.6 6.8-23.4s16.2-6.8 24.2-2.8l181 92 3.4-1.4c35.8-15.4 73.8-25.6 113-30.2l2.8-0.4 2-2c73.8-77.6 176-120.4 287.6-120.4 55.6 0 111.4 11.4 161.6 33l3.4 1.4 181-92c3-1.6 6.6-2.4 10-2.4 7 0 13.6 3.2 17.8 9s5.4 13 3.2 19.6zM285 245.2c-17.6 5.2-34.6 11.8-51 19.6-6.2 3-13.4 2.8-19.4-0.2l-143.6-73 47.2 148c2.2 7 0.8 14.4-3.6 20.2-41 52.2-62.6 113.8-62.6 178.2 0 169.8 151.6 308 338 308 73.8 0 146.8-22.6 205.6-63.6l17.6-12.4-21.4-2.2c-193.8-19.4-339.8-169.8-339.8-349.8 0-57 14.2-111.2 42.2-161.2l9.6-17.2-18.8 5.6zM809.4 144.4c-6 3-13.2 3.2-19.4 0.2-47.8-22.6-101.8-34.6-156-34.6-186.4 0-338 138.2-338 308s151.6 308 338 308c186.4 0 338-138.2 338-308 0-64.4-21.6-126-62.4-178.4-4.4-5.8-5.8-13.2-3.6-20.2l47.2-148-143.8 73zM516.795 447.641c16.355-2.654 27.461-18.064 24.807-34.419s-18.064-27.461-34.419-24.807c-16.355 2.654-27.461 18.064-24.807 34.419s18.064 27.461 34.419 24.807zM662 418c0-16.569-13.431-30-30-30s-30 13.431-30 30c0 16.569 13.431 30 30 30s30-13.431 30-30zM782 418c0-16.569-13.431-30-30-30s-30 13.431-30 30c0 16.569 13.431 30 30 30s30-13.431 30-30z" />
<glyph unicode="&#xe90b;" glyph-name="close" d="M73.44 9.44c5.792-5.798 13.797-9.385 22.64-9.385s16.848 3.587 22.64 9.385v0l393.28 393.28 393.44-393.28c5.794-5.794 13.799-9.378 22.64-9.378 17.683 0 32.018 14.335 32.018 32.018 0 8.841-3.584 16.846-9.378 22.64l-393.44 393.28 393.28 393.44c5.794 5.794 9.378 13.799 9.378 22.64 0 17.683-14.335 32.018-32.018 32.018-8.841 0-16.846-3.584-22.64-9.378v0l-393.28-393.44-393.44 393.28c-5.559 4.783-12.847 7.695-20.815 7.695-17.673 0-32-14.327-32-32 0-7.968 2.912-15.255 7.73-20.857l-0.035 0.042 393.28-393.44-393.28-393.44c-5.751-5.784-9.305-13.757-9.305-22.56s3.555-16.776 9.307-22.562l-0.002 0.002z" />
<glyph unicode="&#xe90c;" glyph-name="gift-1" d="M894.878 658.338c-0.195 0.522-0.439 0.988-0.687 1.483-0.622 1.251-1.39 2.385-2.314 3.435-0.329 0.373-0.603 0.763-0.965 1.104-1.291 1.219-2.731 2.292-4.412 3.039l-102.449 45.528c8.835 12.364 14.774 26.716 15.793 43.44 2.438 40.344-24.219 75.555-66.344 87.617-32.719 9.375-69.578 2.039-106.563-21.219-11.355-7.149-22.476-15.76-33.174-25.279l-75.264 33.451c-4.133 1.836-8.844 1.852-13 0l-75.015-33.339c-33.44 29.399-72.174 50.401-111.118 50.401-9.852 0-19.57-1.352-28.875-4.016-42.133-12.063-68.789-47.273-66.336-87.625 1.021-16.721 6.959-31.069 15.793-43.433l-102.449-45.528c-1.678-0.747-3.116-1.819-4.407-3.037-0.363-0.342-0.638-0.733-0.969-1.108-0.923-1.048-1.691-2.181-2.313-3.43-0.247-0.496-0.491-0.962-0.688-1.486-0.662-1.765-1.124-3.611-1.124-5.563v-425.227c0-6.32 3.727-12.055 9.5-14.617l368-163.547c0.235-0.105 0.498-0.063 0.736-0.156 1.86-0.726 3.787-1.227 5.764-1.227s3.903 0.501 5.764 1.227c0.238 0.093 0.501 0.051 0.736 0.156l368 163.547c5.781 2.562 9.5 8.297 9.5 14.617v425.227c0 1.953-0.461 3.799-1.122 5.564zM496 478.823v-390.206l-160 71.108v390.205zM512 506.74l-152.058 67.575 126.433 54.927c0.25 0.108 0.402 0.329 0.645 0.449 5.63-0.41 11.303-0.86 16.895-1.254 0 0 8.202-0.516 8.367-0.516 0.492 0 7.789 0.508 7.789 0.508 5.599 0.396 11.28 0.846 16.917 1.257 0.24-0.118 0.39-0.337 0.638-0.444l126.434-54.928zM703.753 591.955l-101.169 43.95c22.606 2.813 45.21 6.46 67.51 12.056 21.804 5.469 60.468 17.743 89.985 40.593l80.53-35.78zM643.984 795.68c21.5 13.539 41.766 20.336 60.531 20.336 6.938 0 13.672-0.93 20.172-2.797 22.766-6.516 44.969-26.023 43.219-54.906-2.422-39.563-56.125-66.914-105.594-79.32-41.625-10.438-85.422-14.367-128.313-17.484 15.828 40.625 58.281 101.625 109.984 134.172zM512 798.812l57.308-25.47c-23.831-26.036-43.966-55.608-57.173-82.449-12.951 26.812-32.821 56.413-56.963 82.658zM299.305 813.219c6.437 1.844 13.187 2.781 20.062 2.781 69.016 0 147.75-94.313 170.773-154.508-42.938 3.125-86.781 7.047-128.453 17.5-49.461 12.406-103.18 39.758-105.594 79.313-1.75 28.883 20.438 48.398 43.211 54.914zM263.921 688.553c29.515-22.849 68.177-35.123 89.985-40.592 22.3-5.597 44.902-9.244 67.509-12.057l-101.166-43.948-136.851 60.817zM160 628.149l144-63.997v-390.205l-144 63.998zM528 478.823l160 71.107v-390.205l-160-71.108zM720 173.947v390.205l144 63.997v-390.204z" />
<glyph unicode="&#xe90d;" glyph-name="gift-2" d="M1001.74 693.462h-313.344c27.782 14.114 54.628 31.476 76.266 53.114 48.884 48.884 48.884 128.4 0 177.286-47.372 47.372-129.914 47.416-177.286 0-34.906-34.904-59.526-82.9-75.376-127.51-15.85 44.61-40.47 92.606-75.376 127.51-47.416 47.416-130.004 47.372-177.286 0-48.884-48.884-48.884-128.4 0-177.286 21.638-21.638 48.484-39 76.266-53.114h-313.344c-12.288 0-22.26-9.972-22.26-22.26v-178.086c0-12.288 9.972-22.26 22.26-22.26h22.26v-512c0-12.288 9.972-22.26 22.26-22.26h890.434c12.288 0 22.26 9.972 22.26 22.26v512h22.26c12.288 0 22.26 9.972 22.26 22.26v178.086c0.006 12.288-9.966 22.26-22.254 22.26zM400.696-18.886h-311.652v489.74h311.652v-489.74zM400.696 515.376h-356.174v133.564h356.174v-133.564zM290.816 778.054c-31.522 31.522-31.522 82.81 0 114.332 15.27 15.316 35.572 23.686 57.166 23.686s41.85-8.37 57.166-23.686c57.21-57.21 84.102-163.394 84.724-198.21 0-0.222-0.044-0.534-0.044-0.712h-2.448c-36.196 1.244-140.066 28.136-196.564 84.59zM578.782-18.886h-133.566v489.74h133.566v-489.74zM578.782 515.376h-133.566v133.564h133.566v-133.564zM536.62 693.462h-2.448c0 0.178-0.044 0.49-0.044 0.712 0.624 34.816 27.514 141 84.724 198.21 15.316 15.316 35.572 23.686 57.166 23.686s41.896-8.37 57.166-23.686c31.522-31.522 31.522-82.81 0-114.332-56.498-56.452-160.368-83.344-196.564-84.59zM934.956-18.886h-311.652v489.74h311.652v-489.74zM979.478 515.376h-356.174v133.564h356.174v-133.564z" />
<glyph unicode="&#xe90e;" glyph-name="group" d="M889.36 413.68c31.515 21.63 51.92 57.462 51.92 98.059 0 65.479-53.081 118.56-118.56 118.56s-118.56-53.081-118.56-118.56c0-40.597 20.405-76.428 51.518-97.798l0.402-0.261c-22.822-8.112-42.557-19.341-59.891-33.411l0.371 0.291c-29.398 25.752-64.654 45.618-103.45 57.324l-1.99 0.516c50.35 28.358 83.8 81.47 83.8 142.395 0 89.956-72.924 162.88-162.88 162.88s-162.88-72.924-162.88-162.88c0-60.924 33.449-114.036 82.985-141.972l0.815-0.422c-40.786-12.222-76.042-32.088-105.764-58.118l0.324 0.278c-16.963 13.779-36.698 25.008-58.124 32.684l-1.396 0.436c31.562 21.642 52 57.512 52 98.156 0 65.523-53.117 118.64-118.64 118.64s-118.64-53.117-118.64-118.64c0-40.644 20.438-76.514 51.596-97.894l0.404-0.262c-78.968-28.385-134.47-102.518-134.72-189.65v-0.030c0-8.837 7.163-16 16-16s16 7.163 16 16v0c0.187 93.394 75.94 169.032 169.36 169.032 38.947 0 74.823-13.146 103.433-35.244l-0.393 0.291c-45.727-49.674-73.76-116.254-73.76-189.381 0-0.105 0-0.21 0-0.315v0.016c0-8.837 7.163-16 16-16s16 7.163 16 16v0c2.51 135.783 113.173 244.894 249.32 244.894s246.811-109.111 249.317-244.659l0.003-0.234c0-8.837 7.163-16 16-16s16 7.163 16 16v0c0 0.089 0 0.194 0 0.299 0 73.127-28.033 139.707-73.94 189.579l0.18-0.198c28.232 21.843 64.138 35.013 103.12 35.013 93.441 0 169.208-75.673 169.36-169.079v-0.014c0-8.837 7.163-16 16-16s16 7.163 16 16v0c-0.237 87.143-55.706 161.27-133.234 189.237l-1.406 0.443zM114.72 512c0.136 47.747 38.874 86.4 86.64 86.4 47.85 0 86.64-38.79 86.64-86.64s-38.79-86.64-86.64-86.64v0c-47.86 0.046-86.64 38.854-86.64 86.72 0 0.056 0 0.113 0 0.169v-0.009zM381.12 580.96c0.182 72.145 58.709 130.56 130.88 130.56 72.283 0 130.88-58.597 130.88-130.88s-58.597-130.88-130.88-130.88v0c-72.246 0.091-130.789 58.634-130.88 130.871v0.009zM736 512c0 47.85 38.79 86.64 86.64 86.64s86.64-38.79 86.64-86.64c0-47.85-38.79-86.64-86.64-86.64v0c-47.832 0.045-86.594 38.808-86.64 86.636v0.004z" />
<glyph unicode="&#xe90f;" glyph-name="hamburger" d="M960 736c0-17.673-14.327-32-32-32v0h-832c-17.673 0-32 14.327-32 32s14.327 32 32 32v0h832c17.673 0 32-14.327 32-32v0zM800 480h-704c-17.673 0-32-14.327-32-32s14.327-32 32-32v0h704c17.673 0 32 14.327 32 32s-14.327 32-32 32v0zM512 192h-416c-17.673 0-32-14.327-32-32s14.327-32 32-32v0h416c17.673 0 32 14.327 32 32s-14.327 32-32 32v0z" />
<glyph unicode="&#xe910;" glyph-name="heart" d="M512-7.031c-14.578 0-28.633 5.281-39.586 14.875-41.367 36.172-81.25 70.164-116.438 100.148l-0.18 0.156c-103.164 87.914-192.25 163.836-254.234 238.625-69.289 83.609-101.563 162.883-101.563 249.484 0 84.141 28.852 161.766 81.234 218.586 53.008 57.492 125.742 89.156 204.828 89.156 59.109 0 113.242-18.688 160.891-55.539 24.047-18.602 45.844-41.367 65.047-67.922 19.211 26.555 41 49.32 65.055 67.922 47.648 36.852 101.781 55.539 160.891 55.539 79.078 0 151.82-31.664 204.828-89.156 52.383-56.82 81.227-134.445 81.227-218.586 0-86.602-32.266-165.875-101.555-249.477-61.984-74.797-151.063-150.711-254.211-238.617-35.25-30.031-75.195-64.078-116.656-100.336-10.945-9.578-25.008-14.859-39.578-14.859zM286.063 844.016c-62.133 0-119.211-24.797-160.734-69.828-42.141-45.711-65.352-108.898-65.352-177.93 0-72.836 27.070-137.977 87.766-211.211 58.664-70.789 145.922-145.148 246.953-231.25l0.188-0.156c35.32-30.102 75.359-64.227 117.031-100.664 41.922 36.508 82.023 70.688 117.414 100.836 101.023 86.102 188.273 160.445 246.938 231.234 60.688 73.234 87.758 138.375 87.758 211.211 0 69.031-23.211 132.219-65.352 177.93-41.516 45.031-98.602 69.828-160.727 69.828-45.516 0-87.305-14.469-124.203-43-32.883-25.438-55.789-57.594-69.219-80.094-6.906-11.57-19.063-18.477-32.523-18.477s-25.617 6.906-32.523 18.477c-13.422 22.5-36.328 54.656-69.219 80.094-36.898 28.531-78.688 43-124.195 43z" />
<glyph unicode="&#xe911;" glyph-name="location" d="M512 960c-211.4 0-383.4-172-383.4-383.4 0-178.4 104.2-342.2 183.2-443 89.4-114.2 177.6-187.6 181.2-190.6 5.6-4.6 12.4-6.8 19.2-6.8s13.6 2.2 19.2 6.8c3.8 3 91.8 76.4 181.2 190.6 79 100.8 183.2 264.6 183.2 443-0.4 211.4-172.4 383.4-383.8 383.4zM665.8 171.4c-61.4-78.6-123.4-138-153.8-165.6-72.2 65.4-323.4 312-323.4 570.6 0 178.4 145 323.6 323.4 323.6s323.4-145.2 323.4-323.4c0-155.4-92.2-306.2-169.6-405.2zM512 831.4c-140.6 0-255-114.4-255-255s114.4-254.8 255-254.8 255 114.4 255 255-114.4 254.8-255 254.8zM512 381.6c-107.4 0-195 87.4-195 195s87.4 195 195 195 195-87.4 195-195-87.6-195-195-195z" />
<glyph unicode="&#xe912;" glyph-name="mail" d="M1024 737.2c0 52-42.2 94.2-94.2 94.2h-835.6c-52 0-94.2-42.2-94.2-94.2v0-578.4c0-52.6 42.8-94.2 94.2-94.2h835.4c52.6 0 94.2 42.8 94.2 94.2l0.2 578.4c0 0 0 0 0 0s0 0 0 0v0zM94.2 771.4h835.6c18.8 0 34.2-15.4 34.2-34.2 0-10-5-19.4-13.4-25l-419.6-279.8c-11.6-7.6-26.4-7.8-38 0 0 0-419.6 279.8-419.6 279.8s0 0 0 0c-8.4 5.6-13.4 15-13.4 25 0 19 15.4 34.2 34.2 34.2v0zM929.8 124.6h-835.6c-18.6 0-34.2 15.2-34.2 34.2v490.2l399.8-266.4c15.8-10.6 34-15.8 52.2-15.8s36.4 5.2 52.2 15.8l399.8 266.4v-490.2c0-18.6-15.2-34.2-34.2-34.2v0z" />
<glyph unicode="&#xe913;" glyph-name="phone" d="M737-64c-179.6 0-371.2 66-521 215.8-149.8 149.6-216 341.2-216 521.2 0 158.4 128.2 287 287 287 12.2 0 23.2-7.4 27.8-18.8l128.6-321.4c6.2-15.4-1.4-32.8-16.8-39l-141.2-56.4c10-162.4 140.4-292.8 302.8-302.8l56.4 141.2c6.2 15.4 23.6 22.8 39 16.8l321.4-128.6c11.4-4.6 18.8-15.6 18.8-27.8 0.2-158.6-128-287.2-286.8-287.2v0zM267.2 899.2c-115-10-207.2-106.4-207.2-226.2 0-180.8 70.4-350.8 198.2-478.6s297.8-198.2 478.6-198.2c119.8 0 216.2 92.2 226.2 207l-273.8 109.6-53.2-132.8c-4.6-11.4-15.6-18.8-27.8-18.8-211.4 0-383.4 172-383.4 383.4 0 12.2 7.4 23.4 18.8 27.8l132.8 53.2-109.2 273.6z" />
<glyph unicode="&#xe914;" glyph-name="play" d="M512 960c-282.334 0-512-229.688-512-512s229.666-512 512-512 512 229.688 512 512-229.666 512-512 512zM512-21.334c-258.792 0-469.334 210.542-469.334 469.334s210.542 469.334 469.334 469.334 469.334-210.542 469.334-469.334-210.542-469.334-469.334-469.334zM715.542 465.938l-298.666 192c-6.542 4.27-15 4.5-21.75 0.792-6.876-3.75-11.126-10.918-11.126-18.73v-384c0-7.812 4.25-14.98 11.126-18.73 3.166-1.73 6.708-2.604 10.208-2.604 4 0 8.042 1.126 11.542 3.396l298.666 192c6.084 3.916 9.792 10.688 9.792 17.938s-3.708 14.020-9.792 17.938zM426.666 295.084v305.832l237.876-152.916-237.876-152.916z" />
<glyph unicode="&#xe915;" glyph-name="plus" d="M984 488h-432v432c0 22.092-17.908 40-40 40s-40-17.908-40-40v-432h-432c-22.092 0-40-17.908-40-40s17.908-40 40-40h432v-432c0-22.092 17.908-40 40-40s40 17.908 40 40v432h432c22.092 0 40 17.908 40 40s-17.908 40-40 40z" />
<glyph unicode="&#xe916;" glyph-name="search" d="M1014.294-8.29l-264.38 260.155c69.233 75.219 111.771 174.698 111.771 284.164-0.033 234.168-192.91 423.971-430.854 423.971s-430.821-189.803-430.821-423.971 192.877-423.971 430.821-423.971c102.808 0 197.102 35.56 271.168 94.678l265.406-261.181c12.932-12.74 33.927-12.74 46.859 0 12.962 12.738 12.962 33.415 0.030 46.155zM430.831 177.289c-201.326 0-364.533 160.613-364.533 358.74s163.207 358.74 364.533 358.74c201.328 0 364.533-160.613 364.533-358.74s-163.205-358.74-364.533-358.74z" />
<glyph unicode="&#xe917;" glyph-name="sm-facebook" d="M718.285 776.963h100.198v182.932h-182.089c-15.19 0.632-200.355 4.171-248.347-178.844-0.695-1.917-16.033-45.443-16.033-147.116l-166.499-0.506v-191.864l166.709 0.485v-506.069h254.646v505.627h168.542v192.37h-168.542v60.528c0 37.627 15.864 82.459 91.413 82.459zM753.279 591.861v-108.099h-168.542v-505.627h-170.375v506.175l-166.709-0.485v107.593l167.152 0.485-0.442 21.426c-2.191 107.699 13.167 152.994 13.863 155.164 41.419 157.629 199.575 149.708 206.359 149.286l141.765-0.042v-98.66h-58.063c-98.45 0-133.528-64.341-133.528-124.553v-102.663h168.521z" />
<glyph unicode="&#xe918;" glyph-name="sm-instagram" d="M746.811 960h-469.624c-152.843 0-277.187-124.344-277.187-277.187v-469.632c0-152.836 124.344-277.179 277.187-277.179h469.632c152.836 0 277.179 124.344 277.179 277.179v469.632c0 152.843-124.344 277.187-277.187 277.187zM963.967 213.181c0-119.734-97.414-217.148-217.156-217.148h-469.624c-119.742 0-217.156 97.414-217.156 217.148v469.632c0 119.742 97.414 217.156 217.156 217.156h469.632c119.734 0 217.148-97.414 217.148-217.156zM511.999 727.993c-154.39 0-279.992-125.601-279.992-279.992s125.601-279.992 279.992-279.992 279.992 125.601 279.992 279.992-125.601 279.992-279.992 279.992zM511.999 228.040c-121.281 0-219.961 98.672-219.961 219.961 0 121.281 98.68 219.961 219.961 219.961 121.289 0 219.961-98.68 219.961-219.961 0-121.289-98.672-219.961-219.961-219.961zM798.686 827.43c-45.625 0-82.734-37.117-82.734-82.734 0-45.625 37.109-82.742 82.734-82.742s82.742 37.117 82.742 82.742-37.117 82.734-82.742 82.734zM798.686 721.993c-12.516 0-22.703 10.187-22.703 22.703 0 12.523 10.187 22.703 22.703 22.703 12.523 0 22.711-10.18 22.711-22.703 0-12.516-10.187-22.703-22.711-22.703z" />
<glyph unicode="&#xe919;" glyph-name="sm-tiktok" d="M390.38-64c-74.54 0-144.84 23.78-203.3 68.78-10.92 8.4-21.42 17.58-31.22 27.26-68.24 67.44-102.58 157.26-96.68 252.92 4.46 72.3 33.58 142 82.040 196.26 64.18 71.86 152.66 111.44 249.18 111.44 16.58 0 33.32-1.24 49.8-3.68l25.6-3.8v-227.18l-39.42 13.020c-11.48 3.8-23.42 5.72-35.5 5.72-30.52 0-59.1-11.96-80.48-33.66-21.28-21.6-32.74-50.16-32.3-80.46 0.58-39.060 21.16-74.46 55.040-94.74 15.6-9.32 33.36-14.78 51.4-15.78 14.24-0.78 28.3 1.080 41.82 5.54 46.22 15.26 77.28 58.14 77.28 106.68l0.2 235.6v460.080h217.12l0.26-29.72c0.12-13.46 1.5-26.92 4.1-39.96 10.2-51.28 38.96-96.98 80.98-128.66 37.3-28.14 81.82-43 128.7-43 1.1 0 1.1 0 11.12-0.7l27.9-1.96v-214l-10 0.020h-19.94c-0.16 0-0.32 0-0.5 0h-9.58c-0.040 0-0.1 0-0.16 0-57.82 0-112 11.020-165.7 33.68-16 6.76-31.58 14.48-46.62 23.1l0.68-295.62c-0.36-87.44-34.92-169.46-97.3-231.12-50.62-50.020-114.5-81.98-184.74-92.38-16.38-2.44-33.12-3.68-49.78-3.68zM390.38 532.66c-79.18 0-151.78-32.46-204.42-91.4-39.52-44.26-63.28-101.080-66.92-159.98-4.8-78.1 23.24-151.46 78.98-206.54 8.060-7.96 16.68-15.5 25.64-22.4 47.88-36.86 105.54-56.34 166.72-56.34 13.72 0 27.5 1.020 41 3.020 57.54 8.52 109.88 34.7 151.36 75.7 50.96 50.36 79.18 117.3 79.48 188.5l-0.94 412.78 48.46-37.38c25.020-19.3 52.54-35.34 81.76-47.68 39.94-16.86 80.2-26.22 122.5-28.44v96.9c-52.28 3.92-101.66 22.5-143.84 54.32-53.8 40.56-90.62 99.12-103.7 164.86-1.4 7.060-2.54 14.2-3.38 21.4h-99.26v-400.080l-0.2-235.6c0-74.46-47.6-140.22-118.46-163.62-20.66-6.82-42.16-9.66-63.92-8.48-27.72 1.52-55 9.9-78.92 24.2-51.86 31.020-83.36 85.36-84.24 145.34-0.68 46.48 16.9 90.32 49.54 123.46 32.74 33.24 76.5 51.54 123.22 51.54 5 0 9.96-0.22 14.92-0.64v96.14c-5.12 0.28-10.26 0.42-15.38 0.42z" />
<glyph unicode="&#xe91a;" glyph-name="sm-youtube" d="M820.37 824.163h-616.741c-112.285 0-203.63-91.638-203.63-204.257v-343.792c0-112.64 91.345-204.257 203.63-204.257h616.741c112.285 0 203.63 91.638 203.63 204.257v343.792c0 112.619-91.345 204.257-203.63 204.257zM982.204 276.093c0-89.59-72.6-162.461-161.834-162.461h-616.741c-89.234 0-161.834 72.892-161.834 162.461v343.813c0 89.569 72.6 162.461 161.834 162.461h616.741c89.234 0 161.834-72.892 161.834-162.461v-343.813zM697.156 455.565l-289.541 169.587c-6.437 3.762-14.44 3.824-20.94 0.104s-10.512-10.637-10.512-18.139v-339.153c0-7.481 4.012-14.42 10.491-18.139 3.218-1.839 6.813-2.759 10.407-2.759 3.657 0 7.293 0.961 10.553 2.863l289.541 169.545c6.395 3.741 10.344 10.616 10.344 18.035s-3.929 14.315-10.344 18.056zM417.959 304.431v266.24l227.286-133.141-227.286-133.099z" />
<glyph unicode="&#xe91b;" glyph-name="sun" d="M512 160c-158.804 0-288 129.196-288 288s129.196 288 288 288 288-129.196 288-288-129.196-288-288-288zM512 672c-123.514 0-224-100.486-224-224s100.486-224 224-224 224 100.486 224 224-100.486 224-224 224zM512 800c-17.674 0-32 14.328-32 32v96c0 17.672 14.326 32 32 32s32-14.328 32-32v-96c0-17.672-14.326-32-32-32zM512-64c-17.674 0-32 14.328-32 32v96c0 17.672 14.326 32 32 32s32-14.328 32-32v-96c0-17.672-14.326-32-32-32zM992 416h-96c-17.674 0-32 14.328-32 32s14.326 32 32 32h96c17.674 0 32-14.328 32-32s-14.326-32-32-32zM128 416h-96c-17.674 0-32 14.328-32 32s14.326 32 32 32h96c17.674 0 32-14.328 32-32s-14.326-32-32-32zM783.53 687.53c-28.252 0-42.844 34.412-22.626 54.628l67.882 67.882c12.498 12.496 32.76 12.498 45.254 0 12.498-12.496 12.498-32.758 0-45.254l-67.882-67.882c-6.25-6.25-14.44-9.374-22.628-9.374zM172.588 76.588c-28.252 0-42.844 34.412-22.626 54.628l67.882 67.882c12.5 12.496 32.762 12.496 45.254 0 12.498-12.496 12.498-32.758 0-45.254l-67.884-67.884c-6.248-6.246-14.436-9.372-22.626-9.372zM851.412 76.588c-8.19 0-16.378 3.124-22.626 9.372l-67.882 67.882c-12.498 12.498-12.498 32.758 0 45.254 12.496 12.498 32.758 12.498 45.254 0l67.882-67.882c20.216-20.212 5.624-54.626-22.628-54.626zM240.47 687.53c-8.19 0-16.378 3.124-22.626 9.372l-67.884 67.882c-12.498 12.498-12.498 32.758 0 45.254 12.496 12.498 32.758 12.498 45.254 0l67.882-67.882c20.218-20.214 5.626-54.626-22.626-54.626z" />
<glyph unicode="&#xe91c;" glyph-name="swipe" d="M912.714 870.986h-267.139c-12.288 0-22.262-9.974-22.262-22.262s9.974-22.262 22.262-22.262h267.139c12.288 0 22.262 9.974 22.262 22.262s-9.974 22.262-22.262 22.262zM928.475 864.441l-89.047 89.047c-8.682 8.682-22.797 8.682-31.479 0s-8.682-22.797 0-31.479l73.286-73.286-73.33-73.33c-8.682-8.682-8.682-22.797 0-31.479 4.364-4.318 10.062-6.501 15.761-6.501s11.397 2.181 15.761 6.501l89.047 89.047c8.682 8.684 8.682 22.797 0 31.479zM333.913 870.986h-267.139c-12.288 0-22.262-9.974-22.262-22.262s9.974-22.262 22.262-22.262h267.139c12.288 0 22.262 9.974 22.262 22.262s-9.974 22.262-22.262 22.262zM98.251 848.726l73.286 73.286c8.682 8.682 8.682 22.797 0 31.479s-22.797 8.682-31.479 0l-89.045-89.049c-8.682-8.682-8.682-22.797 0-31.479l89.047-89.047c4.364-4.318 10.062-6.501 15.761-6.501s11.397 2.181 15.717 6.545c8.682 8.682 8.682 22.797 0 31.479l-73.288 73.288zM890.451 514.802c-18.299 0-35.352-5.566-49.51-15.050-12.199 34.638-45.28 59.572-84.059 59.572-18.299 0-35.352-5.566-49.51-15.050-12.199 34.638-45.28 59.572-84.059 59.572-16.206 0-31.433-4.364-44.522-11.977v145.547c0 49.11-39.937 89.047-89.047 89.047s-89.047-39.937-89.047-89.047v-378.446l-77.381 58.013c-45.858 34.417-111.13 29.83-151.779-10.775-26.046-26.046-26.046-68.388 0-94.434l317.050-317.094c37.844-37.844 88.2-58.681 141.717-58.681h104.318c134.995 0 244.877 109.838 244.877 244.877v244.879c0 49.11-39.937 89.047-89.047 89.047zM934.976 180.879c0-110.462-89.892-200.354-200.354-200.354h-104.318c-41.674 0-80.81 16.206-110.239 45.637l-317.050 317.092c-8.682 8.682-8.682 22.797 0 31.479 13.801 13.758 32.234 20.837 50.756 20.837 15.050 0 30.187-4.675 42.876-14.202l112.956-84.727c6.768-5.076 15.851-5.833 23.331-2.093 7.524 3.784 12.288 11.487 12.288 19.902v422.969c0 24.533 19.946 44.522 44.522 44.522s44.522-19.992 44.522-44.522v-333.924c0-12.288 9.974-22.262 22.262-22.262s22.262 9.974 22.262 22.262v111.307c0 24.533 19.946 44.522 44.522 44.522s44.522-19.992 44.522-44.522v-111.307c0-12.288 9.974-22.262 22.262-22.262s22.262 9.974 22.262 22.262v66.785c0 24.533 19.946 44.522 44.522 44.522s44.522-19.992 44.522-44.522v-66.785c0-12.288 9.974-22.262 22.262-22.262s22.262 9.974 22.262 22.262v22.262c0 24.533 19.946 44.522 44.522 44.522s44.522-19.992 44.522-44.522v-244.877z" />
<glyph unicode="&#xe91d;" glyph-name="time" d="M512 960c-282.769 0-512-229.231-512-512s229.231-512 512-512 512 229.231 512 512c-0.32 282.637-229.363 511.68-512 512zM512-29.867c-263.919 0-477.867 213.948-477.867 477.867s213.948 477.867 477.867 477.867 477.867-213.948 477.867-477.867c-0.301-263.793-214.074-477.566-477.867-477.867zM512 874.667c-235.642 0-426.667-191.025-426.667-426.667s191.025-426.667 426.667-426.667 426.667 191.025 426.667 426.667c-0.262 235.533-191.134 426.404-426.667 426.667zM512 55.467c-216.789 0-392.533 175.744-392.533 392.533s175.744 392.533 392.533 392.533 392.533-175.744 392.533-392.533c-0.245-216.689-175.844-392.288-392.533-392.533zM494.933 789.333h34.133v-34.133h-34.133v34.133zM494.933 140.8h34.133v-34.133h-34.133v34.133zM326.53 735.057l29.541 17.062 17.062-29.541-29.541-17.062-17.062 29.541zM650.72 173.517l29.541 17.062 17.062-29.541-29.541-17.062-17.062 29.541zM207.848 603.887l17.067 29.559 29.559-17.067-17.067-29.559-29.559 17.067zM769.436 279.564l17.067 29.559 29.559-17.067-17.067-29.559-29.559 17.067zM170.667 465.067h34.133v-34.133h-34.133v34.133zM819.2 465.067h34.133v-34.133h-34.133v34.133zM207.858 292.090l29.563 17.063 17.063-29.563-29.563-17.063-17.063 29.563zM769.431 616.38l29.559 17.067 17.067-29.559-29.559-17.067-17.067 29.559zM326.444 160.974l17.062 29.541 29.541-17.062-17.062-29.541-29.541 17.062zM650.798 722.545l17.062 29.541 29.541-17.062-17.062-29.541-29.541 17.062zM494.933 721.067v-263.407l-162.389-97.434 17.579-29.252 170.667 102.4c5.135 3.085 8.277 8.636 8.277 14.626v273.067h-34.133z" />
<glyph unicode="&#xe91e;" glyph-name="weather" d="M447.253 708.077l-56.379 56.998c-6.648 7.947-18.478 8.998-26.424 2.35s-8.998-18.478-2.35-26.424c0.665-0.794 1.394-1.533 2.183-2.208l56.379-56.998c7.867-6.741 19.71-5.826 26.45 2.041 5.963 6.96 6.024 17.213 0.142 24.242zM925.27 762.124c-6.648 7.947-18.478 8.998-26.424 2.35-0.794-0.665-1.533-1.394-2.208-2.183l-56.998-56.379c-7.947-6.648-8.998-18.478-2.35-26.424s18.478-8.998 26.424-2.35c0.794 0.665 1.533 1.394 2.208 2.183l56.998 56.379c7.944 6.648 8.998 18.478 2.35 26.424zM585.58 773.866c-0.116 0.546-0.255 1.085-0.42 1.618l-20.614 77.508c-2.144 10.078-12.051 16.509-22.129 14.368s-16.509-12.051-14.368-22.129c0.116-0.546 0.255-1.085 0.42-1.618l20.614-77.508c2.144-10.078 12.051-16.509 22.129-14.368s16.512 12.051 14.368 22.129zM841.907 374.75c-3.504 3.504-7.145 6.939-10.925 10.307l3.092 5.566c3.837 7.053 7.277 14.314 10.307 21.748 43.905 109.653-9.395 234.138-119.048 278.043-0.206 0.082-0.41 0.165-0.616 0.245-99.132 39.514-212.226-0.062-265.095-92.763-129.224 36.090-263.237-39.409-299.33-168.635-6.006-21.503-9.019-43.73-8.952-66.055 0-3.092 0-6.321 0-9.689-89.714-6.362-157.287-84.247-150.925-173.961 6.012-84.793 76.23-150.696 161.232-151.327h536.478c112.083-0.193 203.101 90.508 203.297 202.591 0.093 53.983-21.325 105.778-59.515 143.929zM580.522 655.821c41.8 16.623 88.377 16.623 130.177 0 90.616-36.154 134.844-138.858 98.844-229.536-2.608-6.243-5.566-12.335-8.864-18.243v-1.649c-51.744 30.081-114.119 35.812-170.477 15.667-10.402 41.501-31.596 79.513-61.43 110.182 20.843 38.698 67.279 55.768 108.223 39.785 9.786-3.218 20.33 2.108 23.549 11.894 2.953 8.977-1.275 18.746-9.841 22.737-55.593 22.276-119.156 1.523-150.894-49.267-14.066 10.575-29.236 19.596-45.248 26.901 20.13 32.542 50.301 57.649 85.96 71.53zM737.278 70.279c-12.757-3.048-25.832-4.571-38.947-4.535h-535.962c-69.276 0.062-125.384 56.273-125.322 125.549 0.031 33.201 13.221 65.034 36.683 88.527l-0.206-0.103c23.492 23.531 55.39 36.737 88.64 36.693h8.555c10.279-0.701 19.181 7.065 19.88 17.344 0.111 1.61 0.010 3.231-0.296 4.816-0.412 3.574-0.755 7.455-1.031 11.647 0 3.917 0 8.246 0 13.090 1.528 113.495 94.773 204.264 208.27 202.736 99.728-1.342 184.095-74.092 200.092-172.536 1.476-10.196 10.938-17.267 21.137-15.79 1.969 0.286 3.881 0.884 5.661 1.773 11.412 5.707 23.448 10.065 35.868 12.987 88.972 21.258 178.331-33.637 199.589-122.609 21.258-88.97-33.637-178.329-122.609-199.587zM1023.165 585.352c-2.845 9.227-12.263 14.757-21.709 12.75l-77.508-20.614c-9.951-2.577-15.942-12.716-13.399-22.675 2.569-9.977 12.739-15.984 22.719-13.415 0.021 0.005 0.041 0.010 0.059 0.015l77.508 20.614c9.848 3.035 15.368 13.479 12.33 23.325zM1010.013 402.991l-77.302 21.129c-9.933 2.847-20.292-2.899-23.139-12.832s2.899-20.292 12.832-23.139l77.302-21.129c9.933-2.847 20.292 2.899 23.139 12.832 2.845 9.933-2.899 20.292-12.832 23.139zM746.619 865.516c-9.933 2.847-20.292-2.899-23.139-12.832l-21.129-77.302c-2.948-9.872 2.664-20.266 12.536-23.214 0.216-0.064 0.435-0.126 0.657-0.183 9.884-2.909 20.256 2.744 23.165 12.629 0.046 0.152 0.088 0.307 0.129 0.461l20.614 77.302c2.845 9.933-2.899 20.292-12.832 23.139z" />
<glyph unicode="&#xe91f;" glyph-name="menu" d="M874 810c-96.6 96.8-225.2 150-362 150s-265.4-53.2-362-150c-96.8-96.6-150-225.2-150-362s53.2-265.4 150-362c96.8-96.8 225.2-150 362-150s265.4 53.2 362 150c96.8 96.8 150 225.2 150 362s-53.2 265.4-150 362zM512-2.4c-248.4 0-450.4 202-450.4 450.4s202 450.4 450.4 450.4 450.4-202 450.4-450.4-202-450.4-450.4-450.4zM793.8 478.8h-563.6c-17 0-30.8-13.8-30.8-30.8s13.8-30.8 30.8-30.8h563.4c17 0 30.8 13.8 30.8 30.8 0.2 17-13.6 30.8-30.6 30.8zM752.6 648.4h-481.2c-17 0-30.8-13.8-30.8-30.8s13.8-30.8 30.8-30.8h481.2c17 0 30.8 13.8 30.8 30.8s-13.8 30.8-30.8 30.8zM752.6 309.2h-481.2c-17 0-30.8-13.8-30.8-30.8s13.8-30.8 30.8-30.8h481.2c17 0 30.8 13.8 30.8 30.8s-13.8 30.8-30.8 30.8z" />
</font>
</defs>
</svg>
